<?xml version="1.0" standalone="no"?>
<!DOCTYPE svg PUBLIC "-//W3C//DTD SVG 1.1//EN" "http://www.w3.org/Graphics/SVG/1.1/DTD/svg11.dtd" >
<svg xmlns="http://www.w3.org/2000/svg">
<metadata>Generated by IcoMoon</metadata>
<defs>
<font id="icomoon" horiz-adv-x="1024">
<font-face units-per-em="1024" ascent="960" descent="-64" />
<missing-glyph horiz-adv-x="1024" />
<glyph unicode="&#x20;" horiz-adv-x="512" d="" />
<glyph unicode="&#xe900;" glyph-name="heart" d="M512-7.111c-10.662 0-21.111 2.992-30.153 8.647-19.684 12.288-481.847 304.754-481.847 617.131 0.090 75.411 30.086 147.711 83.41 201.035s125.623 83.319 201.035 83.41c56.889 0 102.613-7.847 142.222-28.444s85.333-89.889 85.333-89.889c0 0 45.724 69.291 85.333 89.889 39.612 20.598 85.333 28.444 142.222 28.444 75.412-0.090 147.712-30.086 201.034-83.41 53.328-53.324 83.319-125.623 83.41-201.035 0-312.377-462.164-604.843-481.847-617.131-9.041-5.655-19.491-8.647-30.153-8.647zM284.444 789.333c-45.264 0-88.674-17.98-120.681-49.986s-49.986-75.417-49.986-120.681c0-191.317 264.135-409.998 398.222-500.964 134.087 91.022 398.222 309.646 398.222 500.964 0 45.264-17.983 88.674-49.988 120.681s-75.418 49.986-120.678 49.986c-44.544-2.229-86.67-20.923-118.209-52.458-31.534-31.536-50.227-73.665-52.457-118.208 0-15.088-5.991-29.561-16.66-40.229s-25.141-16.66-40.229-16.66c-15.088 0-29.561 5.991-40.229 16.66s-16.66 25.141-16.66 40.229c-2.229 44.543-20.923 86.672-52.458 118.208s-73.665 50.229-118.208 52.458z" />
<glyph unicode="&#xe901;" glyph-name="broken-heart" d="M739.556 903.111c-56.889 0-102.61-7.847-142.222-28.444-39.609-20.598-85.333-89.889-85.333-89.889s-45.724 69.291-85.333 89.889c-39.609 20.598-103.656 28.491-142.222 28.444-75.411-0.090-147.711-30.086-201.035-83.41s-83.32-125.623-83.41-201.035c0-312.377 462.164-604.843 481.847-617.131 9.041-5.655 19.491-8.647 30.153-8.647s21.111 2.992 30.153 8.647c19.684 12.288 481.847 304.754 481.847 617.131-0.091 75.411-30.083 147.711-83.41 201.035-53.322 53.324-125.622 83.319-201.034 83.41zM113.778 618.667c0 45.264 17.98 88.674 49.986 120.681s75.417 49.986 120.681 49.986c40.856-2.112 79.778-18.064 110.361-45.236s51.009-63.948 57.917-104.271l-150.528-150.528 227.556-113.775-74.639-74.644v-142.222c-140.345 105.415-341.333 293.097-341.333 460.009zM568.889 158.492v95.232l152.917 152.977-227.556 113.778 74.639 74.576v23.611c2.23 44.543 20.924 86.672 52.457 118.208 31.539 31.536 73.665 50.229 118.209 52.458 45.261 0 88.673-17.98 120.678-49.986s49.988-75.417 49.988-120.681c0-166.912-200.988-354.588-341.333-460.174z" />
<glyph unicode="&#xe902;" glyph-name="pig" horiz-adv-x="1067" d="M938.667 444.855c0 172.356-140.369 312.593-312.887 312.593h-195.558c-12.358 0-24.834-0.82-37.702-2.383l-132.783 110.541c-11.694 9.769-27.886 11.8-41.653 5.392-13.728-6.408-22.528-20.201-22.528-35.401v-184.157c-23.31-26.453-42.044-56.775-55.264-89.363h-101.18c-21.589 0-39.111-17.545-39.111-39.074v-195.371c0-21.611 17.522-39.074 39.111-39.074h120.462c35.161-60.646 89.76-107.025 153.315-132.971v-101.478h78.223v80.768c12.907-1.6 25.931-2.615 39.11-2.615h195.558c13.295 0 26.283 1.092 39.108 2.654v-80.806h78.225v101.167c114.517 46.498 195.554 158.677 195.554 289.579zM625.779 210.411h-195.558c-89.876 0-172.987 52.591-211.746 134.025-6.493 13.598-20.259 22.272-35.317 22.272h-104.935v117.222h89.721c17.287 0 32.54 11.332 37.507 27.9 10.795 36.26 30.546 69.786 57.181 96.903 7.118 7.346 11.147 17.153 11.147 27.391v116.051l82.251-68.458c8.917-7.424 20.689-10.55 32.032-8.401 14.901 2.696 28.707 3.986 42.16 3.986h195.558c129.417 0 234.667-105.149 234.667-234.445s-105.25-234.445-234.667-234.445zM664.887 601.146h-234.667v-78.151h234.667v78.151zM312.888 483.925c21.6 0 39.111 17.493 39.111 39.074 0 21.579-17.511 39.073-39.111 39.073s-39.111-17.494-39.111-39.073c0-21.581 17.51-39.074 39.111-39.074z" />
<glyph unicode="&#xe903;" glyph-name="invest" horiz-adv-x="1067" d="M979.836 119.842l-78.225 281.229c-2.33 8.397-7.258 15.787-14.042 21.047-6.78 5.265-15.044 8.115-23.543 8.119h-234.679c-8.503-0.004-16.768-2.854-23.552-8.119-6.78-5.261-11.708-12.651-14.037-21.047l-78.229-281.229c-1.655-5.982-1.941-12.267-0.832-18.372 1.109-6.11 3.584-11.874 7.223-16.836 3.644-4.958 8.358-8.981 13.773-11.755 5.41-2.773 11.375-4.22 17.429-4.224h391.13c6.046 0.004 12.011 1.451 17.425 4.224s10.129 6.797 13.769 11.755c3.644 4.962 6.114 10.726 7.223 16.836 1.114 6.106 0.828 12.39-0.832 18.372zM602.982 149.009l55.851 200.879h175.697l55.855-200.879h-287.403zM432.243 401.071c-2.33 8.397-7.258 15.787-14.041 21.047-6.782 5.265-15.048 8.115-23.547 8.119h-234.679c-8.499-0.004-16.768-2.854-23.55-8.119-6.779-5.261-11.709-12.651-14.039-21.047l-78.226-281.229c-1.655-5.982-1.939-12.267-0.833-18.372 1.111-6.11 3.583-11.874 7.224-16.836 3.645-4.958 8.357-8.981 13.769-11.755s11.381-4.22 17.429-4.224h391.132c6.046 0.004 12.011 1.451 17.425 4.224 5.41 2.773 10.129 6.797 13.769 11.755 3.644 4.962 6.118 10.726 7.223 16.836 1.109 6.106 0.828 12.39-0.832 18.372l-78.225 281.229zM133.615 149.009l55.855 200.879h175.693l55.855-200.879h-287.404zM316.437 470.417h391.13c6.054 0 12.023 1.451 17.442 4.224 5.414 2.773 10.129 6.801 13.777 11.767 3.639 4.966 6.114 10.731 7.219 16.845s0.815 12.407-0.849 18.389l-78.229 281.23c-2.334 8.39-7.266 15.767-14.046 21.023-6.784 5.256-15.044 8.101-23.539 8.105h-234.679c-8.495-0.004-16.757-2.849-23.539-8.105s-11.713-12.634-14.047-21.023l-78.226-281.23c-1.665-5.982-1.958-12.275-0.851-18.389 1.103-6.114 3.575-11.878 7.22-16.845s8.357-8.994 13.773-11.767c5.42-2.773 11.388-4.224 17.444-4.224zM424.156 751.648h175.695l55.855-200.879h-287.405l55.855 200.879z" />
<glyph unicode="&#xe904;" glyph-name="own" horiz-adv-x="1067" d="M981.333 818.677l-55.987 55.99-130.385-130.348v102.391h-79.185v-237.565h237.564v79.188h-102.391l130.385 130.344zM676.173 490.364c-54.217-0.67-107.87-11.123-158.374-30.844v110.031c0 88.889-163.169 118.783-237.567 118.783s-237.565-29.894-237.565-118.783v-356.349c0-88.849 163.168-118.78 237.565-118.78 54.565 0.687 108.553 11.285 159.329 31.283 10.057-82.278 164.629-110.473 236.612-110.473 74.398 0 237.568 29.935 237.568 118.784v237.564c0 88.849-163.17 118.784-237.568 118.784zM676.173 411.174c6.046-11.042 9.481-23.313 10.052-35.887 0.572-12.57-1.741-25.105-6.754-36.651-5.018-11.541-12.604-21.781-22.187-29.939-9.579-8.162-20.898-14.025-33.092-17.139s-24.934-3.405-37.257-0.836c-12.322 2.56-23.893 7.906-33.83 15.629s-17.975 17.617-23.509 28.924c-5.53 11.302-8.401 23.723-8.393 36.305 46.963 27.366 100.638 41.079 154.97 39.595zM834.551 256.755c-47.927-28.454-102.639-43.473-158.379-43.473-55.735 0-110.447 15.019-158.374 43.473v27.004c101.568-41.178 215.181-41.178 316.753 0v-27.004zM121.855 362.948c101.57-41.178 215.183-41.178 316.754 0v-27.004c-47.927-28.459-102.639-43.473-158.377-43.473s-110.449 15.014-158.377 43.473v27.004zM121.855 481.732c101.57-41.178 215.183-41.178 316.754 0v-27.004c-47.927-28.459-102.639-43.477-158.377-43.477s-110.449 15.019-158.377 43.477v27.004zM280.232 609.224c6.044-11.040 9.481-23.31 10.050-35.883 0.573-12.573-1.738-25.106-6.752-36.65-5.018-11.546-12.605-21.786-22.187-29.948-9.578-8.158-20.899-14.020-33.094-17.135-12.192-3.115-24.934-3.405-37.254-0.841s-23.893 7.915-33.832 15.637c-9.938 7.718-17.979 17.613-23.508 28.915-5.529 11.308-8.401 23.726-8.394 36.309 46.973 27.338 100.645 41.027 154.972 39.515v0.079zM121.855 216.725v27.439c101.57-41.178 215.183-41.178 316.754 0v-27.439c-48.017-28.194-102.694-43.055-158.377-43.055s-110.359 14.861-158.377 43.055zM676.173 94.421c-55.987-2.483-111.347 12.561-158.374 43.042v27.439c101.568-41.182 215.181-41.182 316.753 0v-27.439c-47.027-30.481-102.391-45.525-158.379-43.042z" />
<glyph unicode="&#xe905;" glyph-name="earn" horiz-adv-x="1067" d="M921.6 366.938v93.867c0 12.45-4.945 24.388-13.747 33.186-8.798 8.802-20.736 13.747-33.186 13.747h-281.6c-12.446 0-24.384-4.945-33.186-13.747-8.798-8.798-13.747-20.736-13.747-33.186v-140.8c0-12.446 4.949-24.384 13.747-33.186 8.802-8.798 20.74-13.747 33.186-13.747v-46.933c-12.446 0-24.384-4.945-33.186-13.747-8.798-8.798-13.747-20.736-13.747-33.186v-140.8c0-12.446 4.949-24.384 13.747-33.186 8.802-8.798 20.74-13.747 33.186-13.747h281.6c12.45 0 24.388 4.949 33.186 13.747 8.802 8.802 13.747 20.74 13.747 33.186v93.867c12.45 0 24.388 4.949 33.186 13.747 8.802 8.802 13.747 20.74 13.747 33.186v140.8c0 12.45-4.945 24.388-13.747 33.186-8.798 8.802-20.736 13.747-33.186 13.747zM640 413.871h187.733v-46.933h-187.733v46.933zM686.933 273.071h187.733v-46.933h-187.733v46.933zM827.733 85.338h-187.733v46.933h187.733v-46.933zM405.333 226.129v93.867c0 12.446-4.949 24.384-13.747 33.186-8.802 8.798-20.74 13.747-33.186 13.747h-281.6c-12.45 0-24.388-4.949-33.19-13.747-8.798-8.802-13.743-20.74-13.743-33.186v-140.8c0-12.45 4.945-24.388 13.743-33.19 8.802-8.798 20.74-13.743 33.19-13.743v-93.867c0-12.45 4.945-24.388 13.743-33.19 8.802-8.798 20.74-13.743 33.19-13.743h281.6c12.446 0 24.384 4.945 33.186 13.743 8.798 8.802 13.747 20.74 13.747 33.19v140.8c0 12.446-4.949 24.384-13.747 33.186-8.802 8.798-20.74 13.747-33.186 13.747zM123.733 273.062h187.733v-46.933h-187.733v46.933zM358.4 85.329h-187.733v46.933h187.733v-46.933zM579.315 568.425l201.485 201.481v-121.37h93.867v281.6h-281.6v-93.867h121.37l-168.303-168.299-107.618 107.614c-8.802 8.798-20.736 13.743-33.182 13.743s-24.38-4.945-33.182-13.743l-281.6-281.602 66.359-66.359 248.422 248.373 107.618-107.571c8.802-8.798 20.736-13.747 33.182-13.747s24.38 4.949 33.182 13.747z" />
<glyph unicode="&#xe906;" glyph-name="card" horiz-adv-x="1067" d="M887.548 789.333h-750.934c-51.814 0-93.867-42.106-93.867-93.778v-562.67c0-51.721 42.052-93.777 93.867-93.777h750.934c51.814 0 93.867 42.057 93.867 93.777v562.67c0 51.672-42.052 93.778-93.867 93.778zM887.548 695.555l-0.047-140.667h-750.887v140.667h750.934zM136.614 132.885v328.226h750.887l-0.094-328.226h-750.793zM840.614 414.221h-187.733v-93.781h187.733v93.781zM512.081 414.221h-328.534v-93.781h328.534v93.781zM418.214 273.553h-234.667v-93.781h234.667v93.781z" />
<glyph unicode="&#xe907;" glyph-name="secure" horiz-adv-x="1067" d="M433.779 213.995h-156.446v625.19h391.113v-273.286h78.221v312.36c0 21.569-17.481 39.074-39.113 39.074h-625.776c-21.629 0-39.111-17.545-39.111-39.074v-703.339c0-21.568 17.483-39.074 39.111-39.074h352.001v78.148zM199.111 213.995h-78.223v625.19h78.223v-625.19zM512 487.522v-273.523c0-148.988 148.506-217.993 226.999-233.664l7.667-1.6 7.667 1.562c78.494 15.671 226.999 84.715 226.999 233.702v273.523h-469.333zM903.113 213.999c0-107.959-123.358-146.761-156.369-155.238-32.303 8.439-156.523 47.825-156.523 155.238v195.375h312.892v-195.375zM707.558 135.846h78.221v78.148h78.221v78.148h-78.221v78.148h-78.221v-78.148h-78.225v-78.148h78.225v-78.148z" />
<glyph unicode="&#xe908;" glyph-name="bank" d="M128 106.709h810.709v-85.333h-810.709v85.333zM961.493 612.096l-405.333 256c-6.457 4.136-14.333 6.593-22.784 6.593s-16.327-2.457-22.955-6.695l0.171 0.102-405.333-256c-11.93-7.699-19.716-20.924-19.716-35.969 0-23.491 18.984-42.548 42.446-42.666h810.678c23.521 0.057 42.567 19.137 42.567 42.667 0 15.072-7.815 28.319-19.614 35.909l-0.169 0.102zM213.376 490.709h128v-341.333h-128v341.333zM469.376 490.709h128v-341.333h-128v341.333zM725.376 490.709h128v-341.333h-128v341.333z" />
<glyph unicode="&#xe909;" glyph-name="bin" d="M213.333 106.667c0-47.128 38.205-85.333 85.333-85.333v0h426.667c47.128 0 85.333 38.205 85.333 85.333v0 512h-597.333zM298.667 533.333h426.667v-426.667h-426.667zM640 746.667v85.333h-256v-85.333h-256v-85.333h768v85.333zM384 448h85.333v-256h-85.333v256zM554.667 448h85.333v-256h-85.333v256z" />
<glyph unicode="&#xe90a;" glyph-name="calendar" d="M896 789.333h-128v85.333h-85.333v-256h85.333v85.333h128v-640h-768v640h85.333v85.333h-85.333c-47.128 0-85.333-38.205-85.333-85.333v0-640c0-47.128 38.205-85.333 85.333-85.333v0h768c47.128 0 85.333 38.205 85.333 85.333v0 640c0 47.128-38.205 85.333-85.333 85.333v0zM341.333 704h298.667v85.333h-298.667v85.333h-85.333v-256h85.333zM213.333 533.333h170.667v-170.667h-170.667v170.667zM426.667 533.333h170.667v-170.667h-170.667v170.667zM640 533.333h170.667v-170.667h-170.667v170.667zM213.333 320h170.667v-170.667h-170.667v170.667zM426.667 320h170.667v-170.667h-170.667v170.667z" />
<glyph unicode="&#xe90b;" glyph-name="cart" d="M768 874.667c-0.008 0-0.018 0-0.027 0-20.16 0-37.054-13.982-41.515-32.777l-0.058-0.29-41.557-180.267h-556.843c-23.564-0.001-42.666-19.103-42.666-42.667 0-3.682 0.466-7.255 1.343-10.664l-0.065 0.296 85.333-341.333c4.8-18.699 21.505-32.298 41.387-32.299h426.667c0.008 0 0.018 0 0.027 0 20.16 0 37.054 13.982 41.515 32.777l0.058 0.29 120.32 521.6h136.747v85.333zM606.080 320h-359.424l-64 256h482.475zM341.333 106.667c0-47.128-38.205-85.333-85.333-85.333s-85.333 38.205-85.333 85.333c0 47.128 38.205 85.333 85.333 85.333s85.333-38.205 85.333-85.333zM682.667 106.667c0-47.128-38.205-85.333-85.333-85.333s-85.333 38.205-85.333 85.333c0 47.128 38.205 85.333 85.333 85.333s85.333-38.205 85.333-85.333z" />
<glyph unicode="&#xe90c;" glyph-name="chart" d="M213.333 149.333v682.667h-85.333v-725.333c0-23.564 19.103-42.667 42.667-42.667v0h725.333v85.333zM469.333 430.336l97.835-97.835c7.721-7.718 18.386-12.492 30.165-12.492s22.445 4.774 30.165 12.492l256 256-60.331 60.331-225.835-225.835-97.835 97.835c-7.721 7.718-18.386 12.492-30.165 12.492s-22.445-4.774-30.165-12.492l-170.667-170.667 60.331-60.331z" />
<glyph unicode="&#xe90d;" glyph-name="chart_down" d="M840.832 503.168v-153.003l-298.667 298.667-170.667-170.667-225.835 225.835-60.331-60.331 286.165-286.165 170.667 170.667 238.336-238.336h-153.003v-85.333h298.667v298.667z" />
<glyph unicode="&#xe90e;" glyph-name="chart_up" d="M670.165 704v-85.333h153.003l-238.336-238.336-170.667 170.667-286.165-286.165 60.331-60.331 225.835 225.835 170.667-170.667 298.667 298.667v-153.003h85.333v298.667z" />
<glyph unicode="&#xe90f;" glyph-name="check" d="M315.264 22.272l-315.264 315.328 113.088 113.152 196.736-196.736 583.552 641.984 118.336-107.648z" />
<glyph unicode="&#xe910;" glyph-name="checkbox-checked" d="M113.778 960h796.443c63.149 0 113.779-51.2 113.779-113.778v-796.443c0-62.579-50.63-113.779-113.779-113.779h-796.443c-63.147 0-113.778 51.2-113.778 113.779v796.443c0 62.578 50.631 113.778 113.778 113.778zM113.778 448l284.444-284.442 511.999 511.997-80.211 80.782-431.788-431.787-204.231 203.662-80.213-80.213z" />
<glyph unicode="&#xe911;" glyph-name="chevron-down" d="M230.997 661.333l298.667-298.667 298.667 298.667 60.331-60.331-358.997-358.997-358.997 358.997z" />
<glyph unicode="&#xe912;" glyph-name="chevron-left" d="M739.328 750.336l-298.667-298.667 298.667-298.667-60.331-60.331-358.997 358.997 358.997 358.997z" />
<glyph unicode="&#xe913;" glyph-name="chevron-right" d="M320 153.003l298.667 298.667-298.667 298.667 60.331 60.331 358.997-358.997-358.997-358.997z" />
<glyph unicode="&#xe914;" glyph-name="chevron-up" d="M828.331 242.005l-298.667 298.667-298.667-298.667-60.331 60.331 358.997 358.997 358.997-358.997z" />
<glyph unicode="&#xe915;" glyph-name="circle-error" d="M512 21.333c-235.641 0-426.667 191.025-426.667 426.667s191.025 426.667 426.667 426.667c235.641 0 426.667-191.025 426.667-426.667v0c-0.267-235.534-191.133-426.4-426.641-426.667h-0.025zM512 789.333c-188.513 0-341.333-152.82-341.333-341.333s152.82-341.333 341.333-341.333c188.513 0 341.333 152.82 341.333 341.333v0c-0.218 188.425-152.908 341.115-341.312 341.333h-0.021zM712.832 588.501l-60.331 60.331-140.501-140.501-140.501 140.501-60.331-60.331 140.501-140.501-140.501-140.501 60.331-60.331 140.501 140.501 140.501-140.459 60.331 60.331-140.501 140.459z" />
<glyph unicode="&#xe916;" glyph-name="circle-pass" d="M512 21.333c-235.641 0-426.667 191.025-426.667 426.667s191.025 426.667 426.667 426.667c235.641 0 426.667-191.025 426.667-426.667v0c-0.267-235.534-191.133-426.4-426.641-426.667h-0.025zM512 789.333c-188.513 0-341.333-152.82-341.333-341.333s152.82-341.333 341.333-341.333c188.513 0 341.333 152.82 341.333 341.333v0c-0.218 188.425-152.908 341.115-341.312 341.333h-0.021zM476.16 237.781l-172.501 172.501 75.435 75.435 83.499-83.499 176.768 247.467 86.784-61.995z" />
<glyph unicode="&#xe917;" glyph-name="copy" d="M810.667-21.333h-426.667c-47.128 0-85.333 38.205-85.333 85.333v0 597.333c0 47.128 38.205 85.333 85.333 85.333v0h426.667c47.128 0 85.333-38.205 85.333-85.333v0-597.333c-1.152-57.899-18.091-81.067-85.333-85.333zM810.667 661.333h-426.667v-597.333h426.667v170.667zM213.333 149.333h-85.333v682.667c0 47.128 38.205 85.333 85.333 85.333v0h512v-85.333h-512z" />
<glyph unicode="&#xe918;" glyph-name="details" d="M596.821 746.667c0-47.128-38.205-85.333-85.333-85.333s-85.333 38.205-85.333 85.333c0 47.128 38.205 85.333 85.333 85.333s85.333-38.205 85.333-85.333zM596.821 448c0-47.128-38.205-85.333-85.333-85.333s-85.333 38.205-85.333 85.333c0 47.128 38.205 85.333 85.333 85.333s85.333-38.205 85.333-85.333zM596.821 149.333c0-47.128-38.205-85.333-85.333-85.333s-85.333 38.205-85.333 85.333c0 47.128 38.205 85.333 85.333 85.333s85.333-38.205 85.333-85.333z" />
<glyph unicode="&#xe919;" glyph-name="email" d="M511.488 874.667c-235.369-0.361-426.033-191.248-426.033-426.666 0-235.641 191.025-426.667 426.667-426.667 89.858 0 173.229 27.778 241.992 75.216l-1.431-0.933-48.299 70.357c-54.034-37.479-120.999-59.873-193.195-59.873-188.678 0-341.632 152.954-341.632 341.632s152.954 341.632 341.632 341.632c188.584 0 341.479-152.801 341.632-341.35v-33.38c0-59.264-25.6-94.635-68.267-94.635v-0.768c-2.399 0.488-5.155 0.768-7.978 0.768-0.030 0-0.061 0-0.091 0h-8.998c-29.915 5.843-53.227 28.711-59.641 57.91l-0.092 0.5v69.589c0.002 0.327 0.003 0.715 0.003 1.102 0 109.008-88.368 197.376-197.376 197.376s-197.376-88.368-197.376-197.376c0-109.008 88.368-197.376 197.376-197.376 53.073 0 101.253 20.947 136.724 55.025l-0.066-0.063c26.164-40.658 69.731-68.166 119.919-71.989l0.529-0.032v0.811c2.423-0.516 5.207-0.811 8.060-0.811 0.076 0 0.153 0 0.229 0.001h8.521c91.861 0 153.6 72.277 153.6 179.968v33.365c-0.267 235.444-190.987 426.254-426.372 426.667h-0.039zM511.488 337.067c-61.267 0-110.933 49.667-110.933 110.933s49.667 110.933 110.933 110.933c61.267 0 110.933-49.667 110.933-110.933v0c0-61.267-49.667-110.933-110.933-110.933v0z" />
<glyph unicode="&#xe91a;" glyph-name="envelope" d="M853.333 704h-682.667c-47.128 0-85.333-38.205-85.333-85.333v0-384c0-47.128 38.205-85.333 85.333-85.333v0h682.667c47.128 0 85.333 38.205 85.333 85.333v0 384c0 47.128-38.205 85.333-85.333 85.333v0zM772.821 618.667l-260.821-163.029-260.821 163.029zM170.667 234.667v333.696l318.72-199.211c6.418-4.070 14.234-6.485 22.613-6.485s16.195 2.416 22.788 6.589l-0.175-0.103 318.72 199.211v-333.696z" />
<glyph unicode="&#xe91b;" glyph-name="exchange_history" d="M670.165 490.667l60.331-60.331 200.832 200.832-200.832 200.832-60.331-60.331 97.835-97.835h-494.336v-85.333h494.336zM389.163 430.336l-60.331 60.331-200.832-200.832 200.832-200.832 60.331 60.331-97.835 97.835h494.336v85.333h-494.336z" />
<glyph unicode="&#xe91c;" glyph-name="export" d="M554.667 209.664v409.003h-85.333v-409.003l-97.835 97.835-60.331-60.331 200.832-200.832 200.832 200.832-60.331 60.331zM725.333 874.667h-426.667c-47.128 0-85.333-38.205-85.333-85.333v0-341.333c0-47.128 38.205-85.333 85.333-85.333v0h42.667v85.333h-42.667v341.333h426.667v-341.333h-42.667v-85.333h42.667c47.128 0 85.333 38.205 85.333 85.333v0 341.333c0 47.128-38.205 85.333-85.333 85.333v0z" />
<glyph unicode="&#xe91d;" glyph-name="eye-closed" d="M789.333 634.752l179.584 179.584-60.331 60.331-830.763-830.763 60.331-60.331 220.459 220.459c45.506-18.181 98.225-28.943 153.397-29.439l0.203-0.001c271.019 0 469.333 277.333 469.333 277.333-54.542 70.824-117.978 131.276-189.438 180.999l-2.775 1.828zM512 281.259c-22.977 0.055-44.863 4.659-64.827 12.959l1.126-0.415 221.867 221.867c7.943-18.981 12.558-41.037 12.558-64.171 0-94.021-76.219-170.24-170.24-170.24-0.17 0-0.339 0-0.509 0.001h0.026zM204.16 291.029l139.136 139.136c-1.084 6.421-1.792 13.936-1.96 21.583l-0.003 0.177c0 94.257 76.41 170.667 170.667 170.667v0c7.825-0.172 15.339-0.879 22.684-2.088l-0.924 0.126 91.947 91.947c-33.995 10.345-73.091 16.422-113.568 16.682l-0.139 0.001c-271.019 0-469.333-277.333-469.333-277.333 46.977-61.139 100.127-114.099 159.444-159.394l2.050-1.502z" />
<glyph unicode="&#xe91e;" glyph-name="eye-open" d="M512 746.88c-271.019 0-469.333-277.333-469.333-277.333s198.315-281.387 469.333-281.387 469.333 281.387 469.333 281.387-198.315 277.333-469.333 277.333zM512 298.88c-94.257 0-170.667 76.41-170.667 170.667s76.41 170.667 170.667 170.667c94.257 0 170.667-76.41 170.667-170.667v0c0-94.257-76.41-170.667-170.667-170.667v0zM597.333 469.547c0-47.128-38.205-85.333-85.333-85.333s-85.333 38.205-85.333 85.333c0 47.128 38.205 85.333 85.333 85.333s85.333-38.205 85.333-85.333z" />
<glyph unicode="&#xe91f;" glyph-name="fa_google" d="M512 917.333c-259.206 0-469.333-210.128-469.333-469.333s210.128-469.333 469.333-469.333c259.206 0 469.333 210.128 469.333 469.333v0c-0.315 259.079-210.255 469.018-469.303 469.333h-0.030zM512 64c-212.077 0-384 171.923-384 384s171.923 384 384 384c212.077 0 384-171.923 384-384v0c-0.243-211.98-172.021-383.758-383.977-384h-0.023zM512 661.333c-117.821 0-213.333-95.513-213.333-213.333s95.513-213.333 213.333-213.333c117.821 0 213.333 95.513 213.333 213.333v0c-0.146 117.762-95.571 213.188-213.319 213.333h-0.014zM384 448c0.175 55.194 35.326 102.133 84.443 119.827l0.891 0.28v-240.213c-50.007 17.974-85.159 64.913-85.333 120.085v0.021zM554.667 327.893v240.213c50.109-17.833 85.338-64.856 85.338-120.107s-35.229-102.273-84.45-119.83l-0.888-0.276zM554.667 746.667c0-23.564-19.103-42.667-42.667-42.667s-42.667 19.103-42.667 42.667c0 23.564 19.103 42.667 42.667 42.667s42.667-19.103 42.667-42.667zM331.008 629.077c7.724 7.722 12.501 18.39 12.501 30.174 0 23.564-19.103 42.667-42.667 42.667s-42.667-19.103-42.667-42.667c0-11.784 4.777-22.453 12.501-30.174v0c7.721-7.718 18.386-12.492 30.165-12.492s22.445 4.774 30.165 12.492v0zM213.333 490.667c-23.564 0-42.667-19.103-42.667-42.667s19.103-42.667 42.667-42.667c23.564 0 42.667 19.103 42.667 42.667v0c0 23.564-19.103 42.667-42.667 42.667v0zM270.635 267.051c-7.724-7.722-12.501-18.39-12.501-30.174 0-23.564 19.103-42.667 42.667-42.667s42.667 19.103 42.667 42.667c0 11.784-4.777 22.453-12.501 30.174v0c-7.721 7.718-18.386 12.492-30.165 12.492s-22.445-4.774-30.165-12.492v0zM512 192c-23.564 0-42.667-19.103-42.667-42.667s19.103-42.667 42.667-42.667c23.564 0 42.667 19.103 42.667 42.667v0c0 23.564-19.103 42.667-42.667 42.667v0zM692.992 266.965c-7.724-7.722-12.501-18.39-12.501-30.174 0-23.564 19.103-42.667 42.667-42.667s42.667 19.103 42.667 42.667c0 11.784-4.777 22.453-12.501 30.174v0c-7.721 7.718-18.386 12.492-30.165 12.492s-22.445-4.774-30.165-12.492v0zM810.667 490.667c-23.564 0-42.667-19.103-42.667-42.667s19.103-42.667 42.667-42.667c23.564 0 42.667 19.103 42.667 42.667v0c0 23.564-19.103 42.667-42.667 42.667v0zM751.829 631.083c7.558 7.693 12.224 18.249 12.224 29.895 0 23.564-19.103 42.667-42.667 42.667s-42.667-19.103-42.667-42.667c0-11.9 4.872-22.663 12.73-30.402l0.005-0.005c7.697-7.58 18.267-12.26 29.931-12.26 11.918 0 22.695 4.887 30.436 12.766l0.006 0.006z" />
<glyph unicode="&#xe920;" glyph-name="globe" d="M682.667 858.496v-134.912h-128v-128h128v-128l-128-42.667-85.333-213.333-213.333 128v256l128 85.333v193.749c-174.879-56.056-299.253-217.212-299.253-407.417 0-235.806 191.159-426.965 426.965-426.965s426.965 191.159 426.965 426.965c0 173.965-104.042 323.631-253.297 390.166l-2.714 1.081z" />
<glyph unicode="&#xe921;" glyph-name="grid_view" d="M170.667 874.667h213.333c47.128 0 85.333-38.205 85.333-85.333v-213.333c0-47.128-38.205-85.333-85.333-85.333h-213.333c-47.128 0-85.333 38.205-85.333 85.333v213.333c0 47.128 38.205 85.333 85.333 85.333zM640 874.667h213.333c47.128 0 85.333-38.205 85.333-85.333v-213.333c0-47.128-38.205-85.333-85.333-85.333h-213.333c-47.128 0-85.333 38.205-85.333 85.333v213.333c0 47.128 38.205 85.333 85.333 85.333zM170.667 405.333h213.333c47.128 0 85.333-38.205 85.333-85.333v-213.333c0-47.128-38.205-85.333-85.333-85.333h-213.333c-47.128 0-85.333 38.205-85.333 85.333v213.333c0 47.128 38.205 85.333 85.333 85.333zM640 405.333h213.333c47.128 0 85.333-38.205 85.333-85.333v-213.333c0-47.128-38.205-85.333-85.333-85.333h-213.333c-47.128 0-85.333 38.205-85.333 85.333v213.333c0 47.128 38.205 85.333 85.333 85.333z" />
<glyph unicode="&#xe922;" glyph-name="hourglass" d="M810.667 739.328v92.672c0 23.564-19.103 42.667-42.667 42.667v0h-512c-23.564 0-42.667-19.103-42.667-42.667v0-92.672c0.103-35.327 14.411-67.292 37.509-90.501l200.827-200.827-200.832-200.832c-23.167-23.035-37.505-54.928-37.505-90.17 0-0.13 0-0.259 0.001-0.389v0.020-92.629c0-23.564 19.103-42.667 42.667-42.667v0h512c23.564 0 42.667 19.103 42.667 42.667v0 92.629c0 0.11 0.001 0.239 0.001 0.369 0 35.242-14.338 67.135-37.499 90.164l-200.838 200.838 200.832 200.832c23.093 23.204 37.401 55.169 37.504 90.476v0.020zM725.333 156.629v-49.963h-426.667v49.963c0 0.050 0 0.109 0 0.168 0 11.729 4.78 22.341 12.499 29.995l200.835 200.878 200.832-200.875c7.721-7.657 12.502-18.269 12.502-29.997 0-0.059 0-0.118 0-0.177v0.009zM725.333 739.328c-0.047-11.773-4.814-22.424-12.504-30.168l-200.83-200.83-200.832 200.832c-7.688 7.741-12.454 18.392-12.501 30.156v50.014h426.667zM384 149.333l128 128 128-128z" />
<glyph unicode="&#xe923;" glyph-name="id_card" d="M853.333 704v-512h-682.667v512h682.667zM853.333 789.333h-682.667c-47.070-0.145-85.188-38.264-85.333-85.319v-512.014c0.145-47.070 38.264-85.188 85.319-85.333h682.681c47.070 0.145 85.188 38.264 85.333 85.319v512.014c-0.145 47.070-38.264 85.188-85.319 85.333h-0.014zM597.333 490.667h170.667v-85.333h-170.667v85.333zM597.333 362.667h170.667v-85.333h-170.667v85.333zM256 277.333c-0.226 2.75-0.355 5.953-0.355 9.187 0 65.815 53.353 119.168 119.168 119.168 3.233 0 6.436-0.129 9.604-0.381l-0.418 0.027c2.75 0.226 5.953 0.355 9.187 0.355 65.815 0 119.168-53.353 119.168-119.168 0-3.233-0.129-6.436-0.381-9.604l0.027 0.418zM469.333 533.333c0-47.128-38.205-85.333-85.333-85.333s-85.333 38.205-85.333 85.333c0 47.128 38.205 85.333 85.333 85.333s85.333-38.205 85.333-85.333z" />
<glyph unicode="&#xe924;" glyph-name="list_view" d="M213.333 874.667h597.333c47.128 0 85.333-38.205 85.333-85.333v-85.333c0-47.128-38.205-85.333-85.333-85.333h-597.333c-47.128 0-85.333 38.205-85.333 85.333v85.333c0 47.128 38.205 85.333 85.333 85.333zM213.333 576h597.333c47.128 0 85.333-38.205 85.333-85.333v-85.333c0-47.128-38.205-85.333-85.333-85.333h-597.333c-47.128 0-85.333 38.205-85.333 85.333v85.333c0 47.128 38.205 85.333 85.333 85.333zM213.333 277.333h597.333c47.128 0 85.333-38.205 85.333-85.333v-85.333c0-47.128-38.205-85.333-85.333-85.333h-597.333c-47.128 0-85.333 38.205-85.333 85.333v85.333c0 47.128 38.205 85.333 85.333 85.333z" />
<glyph unicode="&#xe925;" glyph-name="logout" d="M768 21.333h-469.333c-47.128 0-85.333 38.205-85.333 85.333v0 128h85.333v-128h469.333v682.667h-469.333v-128h-85.333v128c0 47.128 38.205 85.333 85.333 85.333v0h469.333c47.128 0 85.333-38.205 85.333-85.333v0-682.667c0-47.128-38.205-85.333-85.333-85.333v0zM499.456 648.875l-60.288-60.416 98.133-97.792h-366.635v-85.333h366.123l-97.664-97.877 60.416-60.245 200.789 201.173z" />
<glyph unicode="&#xe926;" glyph-name="mobile" d="M768 789.333c0 47.128-38.205 85.333-85.333 85.333v0h-341.333c-47.128 0-85.333-38.205-85.333-85.333v0-682.667c0-47.128 38.205-85.333 85.333-85.333v0h341.333c47.128 0 85.333 38.205 85.333 85.333v0zM682.667 192h-341.333v512h341.333z" />
<glyph unicode="&#xe927;" glyph-name="new_window" d="M682.155 64h-469.333c-47.128 0-85.333 38.205-85.333 85.333v0 469.333c0 47.128 38.205 85.333 85.333 85.333v0h256v-85.333h-256v-469.333h469.333v256h85.333v-256c0-47.128-38.205-85.333-85.333-85.333v0zM597.419 832v-85.333h153.003l-465.579-465.28 60.075-60.501 465.835 465.451v-153.003h85.333v298.667z" />
<glyph unicode="&#xe928;" glyph-name="notification" d="M896 23.253h-768c-0.069 0-0.151-0.001-0.234-0.001-23.564 0-42.667 19.103-42.667 42.667 0 6.952 1.663 13.516 4.612 19.315l-0.112-0.242 384 768c7.898 13.080 22.037 21.691 38.187 21.691s30.289-8.611 38.075-21.492l0.112-0.199 384-768c2.837-5.557 4.5-12.12 4.5-19.072 0-23.496-18.993-42.556-42.463-42.666h-0.010zM197.035 108.587h629.931l-314.965 629.931zM469.333 535.253h85.333v-256h-85.333v256zM565.333 193.92c0-29.455-23.878-53.333-53.333-53.333s-53.333 23.878-53.333 53.333c0 29.455 23.878 53.333 53.333 53.333s53.333-23.878 53.333-53.333z" />
<glyph unicode="&#xe929;" glyph-name="notifications" d="M364.501 149.333c29.716-51.344 84.382-85.334 146.987-85.334s117.271 33.989 146.552 84.521l0.435 0.813zM895.488 192h-768v116.096l29.184 9.685c57.902 19.694 98.816 73.587 98.816 137.036 0 0.033 0 0.067 0 0.1v-0.005 121.088c0 141.385 114.615 256 256 256s256-114.615 256-256v0-121.088c0-0.028 0-0.062 0-0.095 0-63.449 40.914-117.342 97.799-136.734l1.017-0.301 29.184-9.685zM256.981 277.333h509.013c-51.356 42.399-83.84 106.072-83.84 177.333 0 0.086 0 0.173 0 0.259v-0.014 121.088c0 94.257-76.41 170.667-170.667 170.667s-170.667-76.41-170.667-170.667v0-121.088c0-0.073 0-0.159 0-0.246 0-71.261-32.484-134.934-83.451-177.021l-0.389-0.312z" />
<glyph unicode="&#xe92a;" glyph-name="profile" d="M511.488 448c-94.257 0-170.667 76.41-170.667 170.667s76.41 170.667 170.667 170.667c94.257 0 170.667-76.41 170.667-170.667v0c0-94.257-76.41-170.667-170.667-170.667v0zM511.488 704c-47.128 0-85.333-38.205-85.333-85.333s38.205-85.333 85.333-85.333c47.128 0 85.333 38.205 85.333 85.333v0c0 47.128-38.205 85.333-85.333 85.333v0zM852.821 106.667h-682.667v42.667c0 150.741 140.373 256 341.333 256s341.333-105.259 341.333-256zM262.272 192h498.432c-25.6 77.141-120.875 128-249.216 128s-223.701-50.859-249.216-128z" />
<glyph unicode="&#xe92b;" glyph-name="qr" d="M128 533.291h256c23.564 0 42.667 19.103 42.667 42.667v0 256c0 23.564-19.103 42.667-42.667 42.667v0h-256c-23.564 0-42.667-19.103-42.667-42.667v0-256c0-23.564 19.103-42.667 42.667-42.667v0zM170.667 789.291h170.667v-170.667h-170.667zM896 874.624h-170.667c-23.564 0-42.667-19.103-42.667-42.667v0-170.667c0-23.564 19.103-42.667 42.667-42.667v0h170.667c23.564 0 42.667 19.103 42.667 42.667v0 170.667c0 23.564-19.103 42.667-42.667 42.667v0zM853.333 703.957h-85.333v85.333h85.333zM298.667 277.291h-170.667c-23.564 0-42.667-19.103-42.667-42.667v0-170.667c0-23.564 19.103-42.667 42.667-42.667v0h170.667c23.564 0 42.667 19.103 42.667 42.667v0 170.667c0 23.564-19.103 42.667-42.667 42.667v0zM256 106.624h-85.333v85.333h85.333zM469.333 874.624h170.667v-85.333h-170.667v85.333zM512 575.957h128v85.333h-85.333v85.333h-85.333v-128c0-23.564 19.103-42.667 42.667-42.667v0zM682.667 533.291v-170.667c0-23.564 19.103-42.667 42.667-42.667v0h128v-42.667h85.333v85.333c0 23.564-19.103 42.667-42.667 42.667v0h-128v85.333h170.667v85.333h-213.333c-23.564 0-42.667-19.103-42.667-42.667v0zM426.667 319.957v128c0 23.564-19.103 42.667-42.667 42.667v0h-298.667v-85.333h85.333v-85.333h85.333v85.333h85.333v-85.333zM469.333 405.291h170.667v-85.333h-170.667v85.333zM512 533.291h128v-85.333h-128v85.333zM640 191.957v-85.333h-170.667v42.667h-85.333v-85.333c0-23.564 19.103-42.667 42.667-42.667v0h256c23.564 0 42.667 19.103 42.667 42.667v0 85.333h213.333v85.333h-256c-23.564 0-42.667-19.103-42.667-42.667v0zM512 277.291h85.333v-128h-85.333v128zM384 277.291h85.333v-85.333h-85.333v85.333zM768 106.624h170.667v-85.333h-170.667v85.333z" />
<glyph unicode="&#xe92c;" glyph-name="question" d="M512 21.333c-235.641 0-426.667 191.025-426.667 426.667s191.025 426.667 426.667 426.667c235.641 0 426.667-191.025 426.667-426.667v0c-0.267-235.534-191.133-426.4-426.641-426.667h-0.025zM512 789.333c-188.513 0-341.333-152.82-341.333-341.333s152.82-341.333 341.333-341.333c188.513 0 341.333 152.82 341.333 341.333v0c-0.218 188.425-152.908 341.115-341.312 341.333h-0.021zM554.667 320h-85.333v128h42.667c47.128 0 85.333 38.205 85.333 85.333s-38.205 85.333-85.333 85.333c-47.128 0-85.333-38.205-85.333-85.333v0h-85.333c0.025 94.238 76.425 170.623 170.667 170.623 94.257 0 170.667-76.41 170.667-170.667 0-79.094-53.804-145.622-126.809-164.979l-1.191-0.268zM565.333 234.667c0-29.455-23.878-53.333-53.333-53.333s-53.333 23.878-53.333 53.333c0 29.455 23.878 53.333 53.333 53.333s53.333-23.878 53.333-53.333z" />
<glyph unicode="&#xe92d;" glyph-name="recurring" d="M469.333 618.667v-256h170.667v85.333h-85.333v170.667zM512 874.667c-0.134 0-0.292 0-0.451 0-117.628 0-224.061-47.931-300.834-125.327l-0.027-0.028-82.688 82.688v-256h256l-113.024 113.024c61.802 61.969 147.27 100.309 241.693 100.309 188.513 0 341.333-152.82 341.333-341.333s-152.82-341.333-341.333-341.333c-0.235 0-0.471 0-0.706 0.001h0.037v-85.333c235.641 0 426.667 191.025 426.667 426.667s-191.025 426.667-426.667 426.667v0z" />
<glyph unicode="&#xe92e;" glyph-name="rewards" d="M896 832h-139.861c-14.92 25.602-42.204 42.56-73.457 42.667h-341.348c-31.268-0.107-58.552-17.065-73.254-42.263l-0.218-0.404h-139.861c-23.564 0-42.667-19.103-42.667-42.667v0-129.664c0-0.089 0-0.195 0-0.301 0-40.241 18.656-76.124 47.792-99.472l0.251-0.195 178.261-142.592c38.58-48.309 93.53-82.124 156.338-93.049l1.529-0.22v-89.173h-85.333c-23.564 0-42.667-19.103-42.667-42.667v0-85.333h-42.667v-85.333h426.667v85.333h-42.667v85.333c0 23.564-19.103 42.667-42.667 42.667v0h-85.333v89.173c64.337 11.146 119.287 44.961 157.471 92.757l0.396 0.512 178.304 142.635c29.361 23.535 48 59.397 48 99.612 0 0.11 0 0.22 0 0.33v-0.017 129.664c0 0 0 0.001 0 0.001 0 23.564-19.103 42.667-42.667 42.667-0.12 0-0.24 0-0.36-0.001h0.018zM597.333 106.667h-170.667v42.667h170.667zM186.709 626.304c-9.814 7.885-16.043 19.885-16.043 33.341 0 0.009 0 0.017 0 0.026v-0.001 86.997h85.333v-170.667c0-1.792 0.213-3.541 0.256-5.333zM512 405.333c-94.257 0-170.667 76.41-170.667 170.667v0 213.333h341.333v-213.333c0-94.257-76.41-170.667-170.667-170.667v0zM853.333 659.669c0-0.005 0-0.010 0-0.016 0-13.436-6.211-25.422-15.918-33.243l-0.082-0.064-69.589-55.68c0 1.792 0.256 3.541 0.256 5.333v170.667h85.333z" />
<glyph unicode="&#xe92f;" glyph-name="search" d="M925.653 94.165l-230.059 230.101c44.952 57.389 72.085 130.614 72.085 210.175 0 189.126-153.317 342.443-342.443 342.443s-342.443-153.317-342.443-342.443c0-189.126 153.317-342.443 342.443-342.443 79.477 0 152.63 27.075 210.739 72.505l-0.755-0.568 230.101-230.059zM426.155 277.333c-0.004 0-0.008 0-0.012 0-141.385 0-256 114.615-256 256s114.615 256 256 256c141.385 0 256-114.615 256-256 0-70.7-28.66-134.706-74.995-181.034l-0.001-0.001c-46.072-46.308-109.847-74.966-180.314-74.966-0.238 0-0.476 0-0.714 0.001h0.037z" />
<glyph unicode="&#xe930;" glyph-name="security" d="M512-64c-421.803 0-426.667 695.723-426.667 725.333 0 0.001 0 0.001 0 0.002 0 15.951 8.753 29.857 21.718 37.178l0.213 0.111 384 213.333c5.975 3.384 13.123 5.378 20.736 5.378s14.761-1.994 20.949-5.488l-0.213 0.111 384-213.333c13.178-7.432 21.931-21.338 21.931-37.289 0-0.001 0-0.001 0-0.002v0c0-29.611-4.864-725.333-426.667-725.333zM171.349 636.587c4.651-117.803 41.984-615.253 340.651-615.253s336 497.451 340.651 615.253l-340.651 189.269z" />
<glyph unicode="&#xe931;" glyph-name="send" d="M955.648 482.389c-220.629 95.701-381.227 167.339-498.859 219.776-229.419 102.4-291.115 129.835-334.080 129.835-0.316 0.005-0.688 0.008-1.061 0.008-24.398 0-46.076-11.649-59.774-29.689l-0.135-0.186c-11.874-14.544-19.069-33.315-19.069-53.766 0-16.212 4.521-31.367 12.37-44.275l-0.213 0.378 156.757-261.248-156.8-261.333c-7.657-12.543-12.19-27.718-12.19-43.952 0-20.446 7.191-39.212 19.181-53.908l-0.122 0.154c13.834-18.226 35.511-29.875 59.91-29.875 0.388 0 0.775 0.003 1.162 0.009l-0.058-0.001c42.965 0 104.363 27.392 332.8 129.28 117.76 52.523 278.699 124.331 500.139 220.373 15.248 6.731 25.697 21.719 25.697 39.147s-10.449 32.415-25.424 39.039l-0.273 0.108zM131.541 745.557c117.037-40.981 212.955-81.933 305.76-128.199l-15.285 6.897c81.493-36.352 183.979-82.048 312.192-138.325h-448.725zM420.779 261.675c-78.805-40.308-175.028-81.261-274.174-115.995l-17.112-5.221 156.075 260.267h448.597c-128.896-56.747-231.808-102.571-313.472-139.051z" />
<glyph unicode="&#xe932;" glyph-name="settings" d="M810.667 576c0.17-0.001 0.371-0.001 0.572-0.001 70.692 0 128 57.308 128 128s-57.308 128-128 128c-55.398 0-102.576-35.193-120.397-84.441l-0.282-0.891h-605.227v-85.333h605.227c17.963-50.015 64.909-85.172 120.087-85.333h0.019zM810.667 746.667c23.564 0 42.667-19.103 42.667-42.667s-19.103-42.667-42.667-42.667c-23.564 0-42.667 19.103-42.667 42.667v0c0 23.564 19.103 42.667 42.667 42.667v0zM384 576c-55.198-0.161-102.143-35.318-119.827-84.443l-0.28-0.89h-178.56v-85.333h178.56c17.833-50.109 64.856-85.338 120.107-85.338s102.273 35.229 119.83 84.45l0.276 0.888h434.56v85.333h-434.56c-17.963 50.015-64.909 85.172-120.087 85.333h-0.019zM384 405.333c-23.564 0-42.667 19.103-42.667 42.667s19.103 42.667 42.667 42.667c23.564 0 42.667-19.103 42.667-42.667v0c0-23.564-19.103-42.667-42.667-42.667v0zM810.667 320c-55.198-0.161-102.143-35.318-119.827-84.443l-0.28-0.89h-605.227v-85.333h605.227c18.162-49.86 65.157-84.821 120.317-84.821 70.551 0 127.744 57.193 127.744 127.744s-57.193 127.744-127.744 127.744c-0.074 0-0.148 0-0.222 0h0.011zM810.667 149.333c-23.564 0-42.667 19.103-42.667 42.667s19.103 42.667 42.667 42.667c23.564 0 42.667-19.103 42.667-42.667v0c0-23.564-19.103-42.667-42.667-42.667v0z" />
<glyph unicode="&#xe933;" glyph-name="share" horiz-adv-x="1026" d="M718.165 215.68c-7.703 11.53-20.666 19.020-35.377 19.020-2.576 0-5.098-0.23-7.547-0.669l0.257 0.038-219.989-36.651-31.147 93.397c-5.808 17.064-21.669 29.131-40.356 29.184h-170.673c0 23.564-19.103 42.667-42.667 42.667v0h-128c-23.564 0-42.667-19.103-42.667-42.667v0-341.333c0-23.564 19.103-42.667 42.667-42.667v0h128c20.664 0.186 37.76 15.226 41.138 34.95l0.035 0.25 207.787-34.603c2.155-0.386 4.637-0.607 7.169-0.607 3.635 0 7.164 0.455 10.534 1.31l-0.295-0.064 341.333 85.333c18.714 4.79 32.328 21.503 32.328 41.395 0 8.841-2.689 17.053-7.293 23.865l0.096-0.151zM85.333 21.333v256h42.667v-256zM424.96 22.229l-211.627 35.285v177.152h139.904l14.251-42.667h-26.155c-23.564 0-42.667-19.103-42.667-42.667s19.103-42.667 42.667-42.667v0c11.605 0 81.067-1.408 92.587 0.64l228.523 38.059 36.48-54.656zM981.333 960h-128c-20.657-0.204-37.743-15.235-41.138-34.95l-0.036-0.25-207.787 34.603c-2.148 0.383-4.62 0.602-7.144 0.602-3.629 0-7.152-0.453-10.516-1.306l0.295 0.063-341.333-85.333c-18.733-4.776-32.364-21.498-32.364-41.404 0-8.837 2.686-17.046 7.287-23.856l-0.096 0.151 85.333-128c7.703-11.53 20.666-19.020 35.377-19.020 2.576 0 5.098 0.23 7.547 0.669l-0.257-0.038 219.989 36.651 31.189-93.397c5.803-17.051 21.644-29.112 40.311-29.184h170.676c0-23.564 19.103-42.667 42.667-42.667v0h128c23.564 0 42.667 19.103 42.667 42.667v0 341.333c0 23.564-19.103 42.667-42.667 42.667v0zM670.763 661.333l-14.251 42.667h26.155c23.564 0 42.667 19.103 42.667 42.667s-19.103 42.667-42.667 42.667v0c-7.211 0-85.333 0.64-92.587-0.64l-228.523-38.059-36.48 54.656 274.005 68.267 211.584-35.285v-176.939zM938.667 618.667h-42.667v256h42.667zM640 512c-18.646-9.527-40.672-15.11-64.002-15.11-55.707 0-103.98 31.831-127.623 78.297l-0.375 0.813c-35.346 0-64-28.654-64-64v0c0-64 128-192 128-192s128 128 128 192z" />
<glyph unicode="&#xe934;" glyph-name="star_full" d="M935.424 594.219c-6.574 15.607-21.743 26.365-39.424 26.368h-229.632l-116.181 232.405c-7.913 13.058-22.046 21.651-38.187 21.651s-30.274-8.593-38.075-21.453l-0.111-0.198-116.181-232.405h-229.632c-23.56-0.005-42.658-19.106-42.658-42.667 0-11.78 4.774-22.445 12.492-30.165l195.584-195.584-78.421-274.56c-1.033-3.497-1.628-7.516-1.628-11.673 0-23.564 19.103-42.667 42.667-42.667 8.811 0 16.998 2.671 23.796 7.247l-0.152-0.097 232.32 154.88 232.32-154.88c6.646-4.48 14.833-7.15 23.644-7.15 23.564 0 42.667 19.103 42.667 42.667 0 4.157-0.595 8.175-1.703 11.975l0.075-0.302-78.421 274.56 195.584 195.584c7.719 7.721 12.494 18.386 12.494 30.167 0 5.879-1.189 11.481-3.34 16.577l0.105-0.28z" />
<glyph unicode="&#xe935;" glyph-name="star_line" d="M768 23.253c-0.003 0-0.006 0-0.010 0-8.822 0-17.019 2.678-23.822 7.264l0.152-0.096-232.32 154.965-232.32-154.88c-6.649-4.486-14.841-7.16-23.659-7.16-23.564 0-42.667 19.103-42.667 42.667 0 4.176 0.6 8.213 1.719 12.027l-0.076-0.302 78.421 274.517-195.584 195.584c-7.668 7.712-12.407 18.343-12.407 30.080 0 23.531 19.049 42.613 42.567 42.667h229.637l116.181 232.405c7.913 13.058 22.046 21.651 38.187 21.651s30.274-8.593 38.075-21.453l0.111-0.198 116.181-232.405h229.632c23.56-0.005 42.658-19.106 42.658-42.667 0-11.78-4.774-22.445-12.492-30.165l-195.584-195.584 78.421-274.517c1.044-3.515 1.645-7.554 1.645-11.733 0-23.557-19.092-42.656-42.647-42.667h-0.001zM512 279.253c0.003 0 0.006 0 0.010 0 8.822 0 17.019-2.678 23.822-7.264l-0.152 0.096 159.403-106.283-53.419 187.051c-1.046 3.517-1.647 7.559-1.647 11.741 0 11.776 4.771 22.438 12.485 30.158l140.501 140.501h-153.003c-0.069 0-0.151-0.001-0.233-0.001-16.613 0-31.008 9.494-38.055 23.353l-0.112 0.243-89.6 179.669-89.6-179.669c-7.159-14.101-21.554-23.595-38.167-23.595-0.082 0-0.164 0-0.245 0.001h-152.99l140.501-140.501c7.714-7.72 12.485-18.382 12.485-30.158 0-4.182-0.602-8.224-1.723-12.043l0.076 0.302-53.419-187.051 159.403 106.283c6.651 4.49 14.848 7.168 23.67 7.168 0.003 0 0.007 0 0.010 0v0z" />
<glyph unicode="&#xe936;" glyph-name="swipe" d="M597.333 618.709h-85.333v-298.667h-128l128-256h256v256l-170.667 85.333zM533.333 832.043c-118.133-0.071-229.003-31.105-324.952-85.424l3.288 1.712-83.669 83.712v-213.333h213.333l-66.688 66.645c75.34 38.698 164.388 61.38 258.733 61.38 127.967 0 246.188-41.73 341.796-112.325l-1.575 1.11 50.432 68.821c-107.384 79.773-242.563 127.704-388.937 127.704-0.62 0-1.239-0.001-1.858-0.003h0.096z" />
<glyph unicode="&#xe937;" glyph-name="switch" d="M256 460.501h640c23.56 0.005 42.658 19.106 42.658 42.667 0 11.78-4.774 22.445-12.492 30.165l-213.333 213.333-60.331-60.331 140.501-140.501h-537.003zM768 375.168h-640c-23.56-0.005-42.658-19.106-42.658-42.667 0-11.78 4.774-22.445 12.492-30.165l213.333-213.333 60.331 60.331-140.501 140.501h537.003z" />
<glyph unicode="&#xe938;" glyph-name="times" d="M870.997 771.669l-60.331 60.331-311.168-311.168-311.168 311.168-60.331-60.331 311.168-311.168-311.168-311.168 60.331-60.331 311.168 311.168 311.168-311.125 60.331 60.331-311.168 311.125z" />
<glyph unicode="&#xe939;" glyph-name="upload" d="M512 874.667c-235.641 0-426.667-191.025-426.667-426.667s191.025-426.667 426.667-426.667c235.641 0 426.667 191.025 426.667 426.667v0c-0.267 235.534-191.133 426.4-426.641 426.667h-0.025zM512 106.667c-188.513 0-341.333 152.82-341.333 341.333s152.82 341.333 341.333 341.333c188.513 0 341.333-152.82 341.333-341.333v0c-0.218-188.425-152.908-341.115-341.312-341.333h-0.021zM311.168 520.832l60.331-60.331 97.835 97.835v-366.336h85.333v366.336l97.835-97.835 60.331 60.331-200.832 200.832z" />
<glyph unicode="&#xe93a;" glyph-name="address_book" d="M819.2 857.6c0 56.554-45.846 102.4-102.4 102.4v0h-614.4c-56.554 0-102.4-45.846-102.4-102.4v0-819.2c0-56.554 45.846-102.4 102.4-102.4v0h614.4c56.554 0 102.4 45.846 102.4 102.4v0 307.2h204.8v512zM716.8 38.4h-614.4v819.2h614.4zM921.6 448h-102.4v102.4h102.4zM819.2 652.8v102.4h102.4v-102.4zM461.414 650.189v53.811h-102.4v-51.2h-102.4v-409.6h102.4v-51.2h102.4v53.811c58.835 12.324 102.388 63.769 102.4 125.387v0.001c-16.385 20.985-26.272 47.738-26.272 76.8s9.887 55.815 26.481 77.078l-0.209-0.278c-0.012 61.62-43.565 113.064-101.566 125.242l-0.834 0.146zM461.414 524.749c0-14.138-11.462-25.6-25.6-25.6v0h-76.8v51.2h76.8c0 0 0 0 0 0 14.12 0 25.571-11.432 25.6-25.546v-0.003zM435.814 345.549h-76.8v51.2h76.8c14.138 0 25.6-11.462 25.6-25.6s-11.462-25.6-25.6-25.6v0z" />
<glyph unicode="&#xe93b;" glyph-name="circle-info" d="M593.169 597.316c0-35.356-28.668-64.017-64.034-64.017s-64.038 28.66-64.038 64.017c0 35.356 28.672 64.017 64.038 64.017s64.034-28.662 64.034-64.017zM580.356 443.669v-204.855h-102.46v153.643h-51.23v102.43h102.46c13.589 0 26.615-5.393 36.224-14.997 9.609-9.609 15.006-22.635 15.006-36.22zM106.449 505.758c4.399 31.317 12.389 61.882 23.727 91.119 15.096 38.459 35.99 74.579 62.104 107.051h-0.648c44.348 55.705 102.464 98.907 168.629 125.332 67.068 26.785 140.023 35.377 211.482 24.907 71.454-10.47 138.876-39.625 195.435-84.524 55.714-44.228 98.935-102.182 125.436-168.143h-1.25c27.2-66.883 36.233-139.761 26.189-211.258-4.399-31.317-12.39-61.884-23.727-91.123-15.095-38.455-35.989-74.577-62.101-107.046h0.644c-44.348-55.706-102.464-98.906-168.627-125.333-67.068-26.782-140.023-35.375-211.482-24.905-71.456 10.47-138.877 39.625-195.435 84.523-55.713 44.228-98.934 102.182-125.437 168.145h1.25c-27.197 66.88-36.23 139.759-26.187 211.255zM0.48 426.001c3.106-72.742 21.713-144.137 54.735-209.344 38.455-75.938 95.247-141.090 165.234-189.559s150.961-78.724 235.59-88.030c84.634-9.306 170.249 2.637 249.097 34.739 78.852 32.107 148.45 83.366 202.496 149.137 54.042 65.766 90.825 143.97 107.021 227.529 7.659 39.518 10.598 79.642 8.866 119.543-3.106 72.74-21.713 144.125-54.733 209.327-38.455 75.938-95.245 141.089-165.235 189.559-69.986 48.469-150.959 78.726-235.588 88.030-84.634 9.304-170.246-2.635-249.098-34.741s-148.449-83.366-202.493-149.135c-54.044-65.769-90.827-143.971-107.022-227.532-7.657-39.507-10.598-79.622-8.868-119.524z" />
<glyph unicode="&#xe93c;" glyph-name="circle-info-in-hand" d="M650.962 693.555c0-29.463-23.89-53.345-53.361-53.345-29.468 0-53.358 23.882-53.358 53.345s23.89 53.345 53.358 53.345c29.471 0 53.361-23.883 53.361-53.345zM640.282 565.507v-170.703h-85.376v128.028h-42.688v85.353h85.376c11.323 0 22.18-4.495 30.185-12.498s12.503-18.86 12.503-30.18zM281.275 405.448c-22.661 55.734-30.189 116.462-21.821 176.038 8.369 59.579 32.335 115.891 69.476 163.229s86.131 84.022 142.016 106.341c55.885 22.32 116.677 29.479 176.218 20.754 59.543-8.724 115.725-33.019 162.852-70.432s83.525-86.613 105.516-142.614c21.988-56.003 28.785-116.823 19.699-176.294-9.085-59.474-33.728-115.487-71.434-162.376h102.963c35.497 61.409 55.117 130.701 57.080 201.597s-13.788 141.164-45.832 204.441c-32.044 63.278-79.368 117.567-137.684 157.956s-125.788 65.601-196.308 73.355c-70.52 7.753-141.857-2.196-207.562-28.949-65.702-26.753-123.697-69.468-168.73-124.272s-75.683-119.968-89.178-189.6c-13.495-69.629-9.408-141.522 11.891-209.175h90.839zM892.173 211.154c-3.561 7.127-9.050 13.115-15.839 17.285s-14.612 6.359-22.582 6.316h-323.83l12.506 12.5c6.336 6.331 10.524 14.495 11.965 23.334 1.439 8.84 0.061 17.905-3.937 25.917l-42.688 85.353c-4.608 9.18-12.37 16.392-21.865 20.311-9.498 3.919-20.088 4.283-29.832 1.027l-203.067-67.686c-3.095 7.99-8.525 14.868-15.583 19.732s-15.416 7.491-23.989 7.539h-170.752c-11.322 0-22.179-4.495-30.184-12.498-8.006-8.005-12.504-18.862-12.504-30.18v-341.407c0-11.32 4.498-22.177 12.504-30.18s18.863-12.498 30.184-12.498h170.752c11.322 0 22.179 4.495 30.184 12.498s12.503 18.86 12.503 30.18h469.568c6.628 0 13.164 1.544 19.090 4.506 5.929 2.962 11.085 7.265 15.060 12.564l128.064 170.703c4.792 6.318 7.731 13.842 8.486 21.734 0.753 7.892-0.707 15.839-4.216 22.948zM85.369 21.373v256.056h85.376v-256.056h-85.376zM704.346 64.049h-448.225v182.612l191.841 64.015 12.337-24.714-63.603-63.585c-7.867-8.064-12.227-18.906-12.127-30.17h-0.384v-42.675h384.192l-64.031-85.484z" />
<glyph unicode="&#xe93d;" glyph-name="chart-advanced" d="M64 896v-840h960v-56h-967.111c-15.088 0-29.56 5.248-40.229 14.579-10.669 9.338-16.66 21.997-16.66 35.2v846.221h64zM515.501 840h61.891v-108.281h61.904v-379.077h-61.904v-108.335h-61.891v108.335h-61.876v379.077h61.876v108.281zM267.953 623.437h61.89v-53.937h61.89v-379.075h-61.89v-54.374h-61.89v54.374h-61.891v379.075h61.891v53.937zM886.861 677.688h-61.907v54.031h-61.888v-54.031h-61.875v-379.076h61.875v-54.278h61.888v54.278h61.907v379.076z" />
<glyph unicode="&#xe93e;" glyph-name="chart-simple" d="M334.396 404.197l162.897-162.898c13.322-13.318 31.391-20.8 50.228-20.8s36.907 7.482 50.229 20.8l426.25 426.252-100.454 100.449-376.025-376.022-162.896 162.897c-13.322 13.318-31.391 20.804-50.229 20.804s-36.906-7.486-50.228-20.804l-284.167-284.168 100.458-100.448 233.938 233.938z" />
<glyph unicode="&#xe93f;" glyph-name="radio-unchecked" d="M512 960c-282.433 0-512-229.567-512-512s229.567-512 512-512c282.432 0 512 229.568 512 512s-229.568 512-512 512zM512 903.111c251.687 0 455.111-203.423 455.111-455.111s-203.425-455.111-455.111-455.111c-251.688 0-455.111 203.424-455.111 455.111s203.423 455.111 455.111 455.111z" />
<glyph unicode="&#xe940;" glyph-name="checkbox-unchecked" d="M914.285-43.52h-764.588c-28.969 0-56.751 11.51-77.235 31.994s-31.992 48.263-31.992 77.234v764.585c0 28.969 11.508 56.75 31.992 77.233s48.266 31.993 77.235 31.993h764.588c28.967 0 56.75-11.509 77.234-31.993s31.99-48.264 31.99-77.233v-764.585c0-28.971-11.506-56.75-31.99-77.234s-48.267-31.994-77.234-31.994zM149.697 830.293v-764.585h764.588v764.585h-764.588z" />
<glyph unicode="&#xe941;" glyph-name="radio-checked" d="M512 960c-282.433 0-512-229.567-512-512s229.567-512 512-512c282.432 0 512 229.568 512 512s-229.568 512-512 512zM512 903.111c251.687 0 455.111-203.423 455.111-455.111s-203.425-455.111-455.111-455.111c-251.688 0-455.111 203.424-455.111 455.111s203.423 455.111 455.111 455.111zM512 220.444c125.673 0 227.556 101.882 227.556 227.556 0 125.676-101.882 227.556-227.556 227.556-125.676 0-227.556-101.88-227.556-227.556 0-125.673 101.88-227.556 227.556-227.556z" />
<glyph unicode="&#xe942;" glyph-name="arrow-down" d="M290 546l-68-68 290-289.875 290 289.875-68 68-222-222zM464 768v-512h96v512z" />
<glyph unicode="&#xe943;" glyph-name="arrow-up" d="M512 771.875l-290-289.875 68-68 222 222 222-222 68 68zM464 704v-512h96v512z" />
<glyph unicode="&#xe944;" glyph-name="filter" d="M0 960v-81.625c0-29.931 10.464-59.007 29.625-82l290.375-348.375v-544l384 192v352l290.375 348.375c19.169 22.996 29.625 52.072 29.625 82v81.625zM166.625 832h690.75l-281.375-337.625v-319.25l-128-64v383.25l-29.625 35.625z" />
<glyph unicode="&#xe945;" glyph-name="pie" d="M512 960c-282.12 0-512-229.88-512-512s229.88-512 512-512c282.12 0 512 229.88 512 512s-229.88 512-512 512zM512 850.286c222.826 0 402.286-179.46 402.286-402.286s-179.46-402.286-402.286-402.286c-222.826 0-402.286 179.46-402.286 402.286s179.46 402.286 402.286 402.286zM909.787 633.364c-35.226 75.592-91.26 139.584-161.543 184.478-70.281 44.894-151.9 68.834-235.298 69.014l-0.946-438.856z" />
<glyph unicode="&#xe946;" glyph-name="at-price" d="M823.167 819.5l-268.5-268.5-128 128-286.167-286.167 60.333-60.333 225.833 225.833 128-128 328.833 328.833zM170.667 277.333v-213.333h213.333v213.333zM256 192h42.667v-42.667h-42.667zM426.667 362.667v-298.667h213.333v298.667zM512 277.333h42.667v-128h-42.667zM682.667 490.667v-426.667h213.333v426.667zM768 405.333h42.667v-256h-42.667zM895.991 596.601v226.865c0 4.713-3.823 8.533-8.533 8.533h-226.867c-7.603 0-11.409-9.192-6.033-14.567l226.867-226.865c5.376-5.376 14.566-1.568 14.566 6.034z" />
<glyph unicode="&#xe947;" glyph-name="one-time" d="M853.338 135.855l-137.549 137.545 98.577 98.526c9.856 10.163 6.861 20.732-6.707 24.137l-357.21 89.327c-13.568 3.354-21.85-5.082-18.496-18.547l89.331-357.158c3.354-13.564 14.225-16.563 24.085-6.656l98.573 98.577 137.549-137.6zM469.333 789.333v-170.667h85.333v170.667zM759.167 712.833l-106.667-106.667 60.333-60.333 106.667 106.667zM264.833 712.833l-60.333-60.333 106.667-106.667 60.333 60.333zM149.333 448v-85.333h149.333v85.333z" />
<glyph unicode="&#xe948;" glyph-name="recurring-v2" d="M469.333 661.333v-236.167l147-98 47.333 71-109 72.667v190.5zM520.75 831.917c-66.89 1.527-133.018-14.433-191.833-46.333s-108.298-78.683-143.5-135.583l72.583-44.833c27.381 44.258 65.835 80.521 111.583 105.333s97.22 37.271 149.25 36.083c52.030-1.188 102.845-15.958 147.417-42.833 44.566-26.874 81.33-64.869 106.667-110.333 25.332-45.463 38.344-96.792 37.75-148.833-0.593-52.040-14.803-103.042-41.167-147.917-26.367-44.874-63.995-82.066-109.167-107.917-45.166-25.85-96.288-39.417-148.333-39.417v-85.333c66.909 0 132.68 17.515 190.75 50.75 58.073 33.234 106.438 81.062 140.333 138.75 33.891 57.687 52.153 123.177 52.917 190.083s-16.017 132.887-48.583 191.333c-32.571 58.445-79.787 107.366-137.083 141.917-57.299 34.549-122.692 53.556-189.583 55.083zM128 533.333v256l256-256z" />
</font>
</defs>
</svg>
